Fast And Furious 9 HD FastDL full movie download torrent - CO LAB Magazine

Fast And Furious 9 HD FastDL full movie download torrent

Fast And Furious 9

Torrent Health

DOWNLOAD torrent

Torrent downloaded from ProstyleX

Visit us to get more exclusive items

File: CAM NEW SOURCE NET SomeCoontS

: 2 hours 8 min

Failure: GiB

: AVI

Video: 2,096 kbps

Video

Video: MPEG-4 Visual Advanced

Appearance :: 1

: 720×320 pixels

Frame: FPS

Audio

Audio: MPEG Audio Layer 3

: 2 channels

Sampling: kHz

: 233 kb / s

Genres: Action, Adventure, Crime, Horror
Director: Justin Lin
Stars: Vin Diesel, Michelle Rodriguez, Jordana Brewster, Tyrese Gibson, Ludacris
Synopsis: Dominic Toretto and his men battle the most skilled assassin and high-performance driver they have ever met: his abandoned brother.
CLOSURE
MEDIA INFORMATION
Houer = Matroska (avi)
Duration = 02:22
File size = 1 GiB
-Video
Codec information = AVC | V_MPEG4 / ISO / AVC
Resolution = 720×300
Show AR = | : 1
Bit rate = 1000 kb / s
Frame rate = Color space CFR = YUV
Sub Monster Chroma = 4: 2: 0
Encoder = x264 – core 159
-Audio
Codec information = AC-3 | A_AC3
Channel = 6
Bit rate = CBR 384 kbps
Example = kHz
Language = English
SCREEN

Screen:

Alternative:

Screen display:

Fast & Furious 5 Fast Five (2011) DVDRip XviD-MAX

Format: AVI

Format / information: interlaced video audio

Profile format: OpenDML

File size: GiB

Duration: 2h 10mn

Overall Bit Rate: 1500Kbps

Movie Name: Fast Five (2011)

Writing App: VirtualDubMod (Build 2542 / Release)

Write library: VirtualDubMod build 2542 / release

Original source form: MAX TORZ

Copyright: SIGISMUNT

Video

ID: 0

Format: MPEG-4 Visual

Profile format:

Format setting, BVOP: Yes

Format setting, QPel: No.

Format Settings, GMC: No Warning Points

Format Settings, Matrix: Custom

Codec ID: XVID

Codec ID / Track: XviD

Duration: 2h 10mn

Bit rate: 1,047 Kbps

Width: 720 pixels

Height: 304 pixels

Screen aspect ratio: 1

Frame rate: fps

Resolution: 24 buses

Colorimetry: 4: 2: 0

Scan Type: Progressive

Bit / (pixel box *):

Stream size: 976 MiB (70%)

Writing Library: XviD 58

Audio

ID: 1

Format: AC-3

Format / information: audio encoding 3

Codec ID: 2000

Duration: 2h 10mn

Bit rate mode: constant

Bit rate: 448 Kbps

Channels: 6 channels

Channel Position: Front: L C R, Surround: L R, LFE

Sampling frequency: KHz

Stream size: 418 MiB (30%)

Alignment: Interleaved Alignment

Interlaced, duration: 64 ms (video frame)

Wings, preload time: 192 ms

Source: DVD (perfect a / / sync quality, including samples)

This torrent is not compatible with seedbox, please send it to MAX

Note: if you have something on sale, such as early release, seed boxes, links, invoices, etc.

please contact us on or our website torentz 3xforum ro

Fast and Furious 5 Fast Five (2011) Free Download Torrent DVDRip XviD-MAX

How to get maximum speed (uTorrent)

Torrent Client – Preference – Bandwidth – Number of connections – Set to approx. 500 for each

Torrent Client – Preferences – BiTorrent – Encryption Protocol – Forced

High bandwidth allocation (set download / upload limit – unlimited)

Stopother active torrents – start downloading and wait for connection.

Enjoy and produce at least a 1: 1 ratio. Don’t forget to say thank you / leave a comment.

Before downloading, you should see ‘google’ ‘version name’ ” preview ‘.

Cheers to all quality groups and p2p / real scene / future websites and affiliate websites.

Don’t trust IMDb bots or bad ratings; I’ve always seen a few trailers first.

Please ignore stupid / incorrect / incorrectly marked / no loading comments from DVDrip / CAM / TS / RAR.

Distribute this post / torrent to friends / forums / etc.

If you need a translation, visit some subtitle websites.

Support Our Partners
SA Local Playlists

Specify whether you see online broadcasts or other spam links.

Recommended movie player VLC PLAYER.

Have an opinion? Give your critique: